Skip to main content

Baghdad Scuba Review Live at High Noon Saloon on 2008-04-20




01. intro
02. Sgt Pepper's Lonely Hearts Club Band
03. A Little Help From My Friends
04. Lucy In The Sky With Diamonds
05. I Dig A Pony
06. I Want You (She's So Heavy)
07. All You Need Is Love
08. A Day In The Life
09. Happiness Is A Warm Gun
10. Revolution
11. I Am The Walrus
12. Getting Better
13. bus ride banter
14. Mean Mr Mustard
15. Polythene Pam
16. She Came In Through The Bathroom Window
17. Golden Slumbers
18. Carry That Weight
19. The End
20. Sgt Pepper's Lonely Hearts Club Band (reprise)


Collection BaghdadScubaReview
Band/Artist Baghdad Scuba Review
Date April 20, 2008
Venue High Noon Saloon
Location Madison WI USA

Source SBD + Audience Matrix
Lineage Neumann KM140's > Beyer MV100 > Zoom H2 @48k/24-bit + Allen & Heath GL3300 SBD > Sony PCM-M1 > DAT @48k/16-bit > Audacity > xACT > FLAC16
Taped by TAS aka morst
Transferred by TAS aka morst


Notes

Sunday, April 20, 2008

Four-Twenty Celebration

Copper Still Foundry performing the music of Drive By Truckers
Baghdad Scuba Review performing the music of The Beatles
Jose And Sumlimes (aka Reason For Leaving) performing the music of Sublime - http://www.archive.org/details/RFL2008-04-20.matrix

HNS house sound engineer - Gavin

Recording: Neumann KM140's (ORTF pair clamped to balcony railing FOB right side) > Beyer MV100 > Zoom H2 @48KHz/24-bit
+ Allen & Heath GL3300 SBD > Sony PCM-M1 > DAT @48KHz

Transfer:
DAT > Sony PCM-M1 > S/Pdif > Audiomedia III PCI card > Powermac G3/266 > Protools 4.1.1 > AIFF > Powermac G4 MDD/ Dual 1.42

WAV > USB > Powermac G4

Mix:
16-bit SBD AIFF + 24-bit audience WAV > Audacity 1.2.6
SBD AIFF > Change Speed plugin at .012% to match 24-bit audience WAV, files lined up by ear/eye, then the mix was output as WAV @44KHz/16-bit with triangle dither > AIFF > Audacity 1.2.6 (tracking in 1/75 second increments) > AIFF's > xACT 1.62 (flac level 8) > FLAC


SHNTOOL:
length expanded size cdr WAVE problems fmt ratio filename
0:21.36 3789116 B --- -- ---xx BSR2008-04-20-mtx-t01.flac
1:47.29 18943052 B --- -- ---xx BSR2008-04-20-mtx-t02.flac
2:54.25 30752444 B --- -- ---xx BSR2008-04-20-mtx-t03.flac
4:21.46 46148636 B --- -- ---xx BSR2008-04-20-mtx-t04.flac
4:44.06 50111756 B --- -- ---xx BSR2008-04-20-mtx-t05.flac
6:01.03 63687500 B --- -- ---xx BSR2008-04-20-mtx-t06.flac
3:28.46 36799436 B --- -- ---xx BSR2008-04-20-mtx-t07.flac
4:08.45 43853084 B --- -- ---xx BSR2008-04-20-mtx-t08.flac
2:43.13 28783820 B --- -- ---xx BSR2008-04-20-mtx-t09.flac
3:37.38 38368220 B --- -- ---xx BSR2008-04-20-mtx-t10.flac
3:39.32 38706908 B --- -- ---xx BSR2008-04-20-mtx-t11.flac
3:49.00 40395644 B --- -- ---xx BSR2008-04-20-mtx-t12.flac
1:19.24 13992092 B --- -- ---xx BSR2008-04-20-mtx-t13.flac
1:31.67 16210028 B --- -- ---xx BSR2008-04-20-mtx-t14.flac
0:56.13 9909020 B --- -- ---xx BSR2008-04-20-mtx-t15.flac
1:47.26 18935996 B --- -- ---xx BSR2008-04-20-mtx-t16.flac
1:31.23 16106540 B --- -- ---xx BSR2008-04-20-mtx-t17.flac
1:30.25 15934844 B --- -- ---xx BSR2008-04-20-mtx-t18.flac
3:05.57 32768108 B --- -- ---xx BSR2008-04-20-mtx-t19.flac
2:18.19 24387932 B --- -- ---xx BSR2008-04-20-mtx-t20.flac
55:36.48 588584176 B 0.4992 (20 files)

-=-=-=-=-=-=-=-=-=-=-=-=-=-=-=-=-=-=-=-=-=-=-=-=-
Soundscape Preservation Society Founded 1991
http://www.iamtypingwithonefinger.com/SPS.html
-=-=-=-=-=-=-=-=-=-=-=-=-=-=-=-=-=-=-=-=-=-=-=-=-

Reviews

There are no reviews yet. Be the first one to write a review.
DOWNLOAD OPTIONS
Uploaded by
morst
on 5/9/2008
Views
2,201
Favorites
1
PEOPLE ALSO FOUND
Baghdad Scuba Review
by Baghdad Scuba Review
1,773
1
3
( 3 reviews )
Source: Neumann KM140's (ORTF, shock mounted and clamped to balcony railing, house right, slightly FOB) > Beyer MV100 > Zoom H2 Handy Recorder @24-bit/48KHz
Baghdad Scuba Review
by Baghdad Scuba Review
2,201
1
0
Source: SBD + Audience Matrix
Camper Van Beethoven
by Camper Van Beethoven
13
2
0
Source: AUD > WAV @16/441
Camper Van Beethoven
by Camper Van Beethoven
11,516
1
1
( 1 reviews )
Source: Sony ECM-717 > Sharp Minidisc MD-MT190
Cracker
by Cracker
208
1
0
Source: SBD + AUD mix
Jackie Greene
by Jackie Greene
171
2
0
Source: Neumann KM140's > V3 > R44
Cracker
by Cracker
195
1
0
Source: DPA 4021> Naiant TB/ot > PCM m10 wav
Flame Shark
by Flame Shark
1,108
1
0
Source: Soundboard (Allen and Heath GL3300) > Zoom H2 Handy Recorder > .WAV (48KHz / 24-bit)
Reason For Leaving
by Reason For Leaving
3,687
1
0
Source: KM140's > MV100 > SBM-1 (Doug Oade mod) @48KHz > Sony PCM-M1 > DAT
Little Marsh Overflow
by Little Marsh Overflow
2,415
1
1
( 1 reviews )
Source: Samson Zoom H2 recorder, stereo mics at 120 degrees, shock mounted, clamped on front corner of right side balcony > WAV @44.1KHz/16 bit